<svg xmlns="http://www.w3.org/2000/svg">
<defs>
<font
       id="EmbeddedFont_1"
       horiz-adv-x="2048"
       horiz-origin-x="0"
       horiz-origin-y="0"
       vert-origin-x="45"
       vert-origin-y="90"
       vert-adv-y="90"><font-face
         font-family="Consolas embedded"
         units-per-em="2048"
         font-weight="normal"
         font-style="normal"
         ascent="1879"
         descent="503"
         id="font-face7" /><missing-glyph
         horiz-adv-x="2048"
         d="M 0,0 L 2047,0 2047,2047 0,2047 0,0 Z"
         id="missing-glyph9" /><glyph
         unicode="y"
         horiz-adv-x="980"
         d="M 1053,1004 L 711,106 C 676,15 639,-64 602,-130 564,-196 523,-250 478,-292 433,-335 384,-366 331,-386 278,-406 218,-416 152,-416 135,-416 119,-416 105,-415 91,-414 76,-413 59,-412 L 59,-254 C 74,-256 90,-258 107,-259 124,-261 143,-262 162,-262 194,-262 224,-257 252,-248 279,-239 305,-223 330,-202 355,-181 378,-154 401,-121 424,-88 446,-47 467,0 L 66,1004 264,1004 518,340 569,184 627,344 862,1004 1053,1004 Z"
         id="glyph11" /><glyph
         unicode="u"
         horiz-adv-x="795"
         d="M 967,0 L 811,0 805,162 C 775,127 747,99 720,76 693,53 666,34 639,20 612,6 586,-4 559,-9 532,-15 503,-18 473,-18 370,-18 292,12 239,73 186,134 160,225 160,348 L 160,1004 334,1004 334,362 C 334,208 392,131 508,131 529,131 550,134 571,141 591,147 612,158 635,174 657,189 681,210 707,237 732,264 761,297 793,338 L 793,1004 967,1004 967,0 Z"
         id="glyph13" /><glyph
         unicode="t"
         horiz-adv-x="901"
         d="M 969,14 C 930,4 889,-3 847,-7 805,-12 762,-14 719,-14 593,-14 499,15 437,72 375,129 344,216 344,334 L 344,858 63,858 63,1004 344,1004 344,1280 518,1325 518,1004 969,1004 969,858 518,858 518,348 C 518,276 537,222 576,187 614,151 670,133 745,133 777,133 812,136 850,141 888,146 928,153 969,164 L 969,14 Z"
         id="glyph15" /><glyph
         unicode="s"
         horiz-adv-x="768"
         d="M 955,274 C 955,239 949,207 937,179 925,151 909,126 888,105 867,83 843,64 816,49 789,34 760,21 729,11 698,1 666,-6 633,-11 600,-16 568,-18 537,-18 469,-18 407,-15 350,-9 293,-3 237,7 182,20 L 182,180 C 241,163 299,151 357,142 415,133 473,129 530,129 613,129 675,140 715,163 755,186 775,218 775,260 775,278 772,294 766,309 759,323 748,337 731,350 714,363 689,376 654,390 619,404 571,420 510,438 465,451 423,467 385,484 346,501 313,521 285,544 257,567 235,595 219,626 203,657 195,694 195,737 195,765 202,796 215,829 228,862 250,893 281,922 312,951 355,975 408,994 461,1013 528,1022 608,1022 647,1022 691,1020 739,1016 787,1011 837,1004 889,993 L 889,838 C 834,851 783,861 734,868 685,874 642,877 606,877 563,877 526,874 497,867 467,860 443,851 425,840 406,828 393,814 385,799 377,783 373,766 373,748 373,730 377,714 384,699 391,684 404,670 423,657 442,643 468,629 502,616 536,602 580,587 635,571 694,554 744,536 785,517 826,498 859,476 884,453 909,430 928,403 939,374 950,345 955,311 955,274 Z"
         id="glyph17" /><glyph
         unicode="r"
         horiz-adv-x="821"
         d="M 201,1004 L 360,1004 365,819 C 424,890 483,942 541,974 598,1006 656,1022 715,1022 819,1022 898,988 952,921 1005,854 1030,754 1026,621 L 850,621 C 852,709 839,773 812,813 784,852 743,872 690,872 667,872 643,868 620,860 596,851 572,838 547,820 522,801 495,778 467,749 439,720 409,686 377,645 L 377,0 201,0 201,1004 Z"
         id="glyph19" /><glyph
         unicode="p"
         horiz-adv-x="821"
         d="M 1018,520 C 1018,431 1006,353 981,286 956,219 921,164 877,120 833,76 781,43 721,21 661,-1 596,-12 526,-12 494,-12 462,-10 431,-7 399,-4 367,2 334,10 L 334,-410 160,-410 160,1004 315,1004 326,836 C 376,905 429,953 486,981 543,1008 604,1022 670,1022 727,1022 778,1010 821,986 864,962 901,928 930,885 959,841 981,788 996,727 1011,665 1018,596 1018,520 Z M 840,512 C 840,565 836,613 829,657 821,701 809,739 792,770 775,801 754,826 728,844 702,861 671,870 635,870 613,870 591,867 568,860 545,853 522,841 498,825 473,808 448,787 421,760 394,733 365,699 334,659 L 334,172 C 366,159 400,148 435,141 470,133 505,129 539,129 633,129 707,161 760,225 813,288 840,384 840,512 Z"
         id="glyph21" /><glyph
         unicode="o"
         horiz-adv-x="927"
         d="M 1034,510 C 1034,432 1023,361 1001,296 979,231 947,175 906,129 865,82 814,46 755,21 696,-5 628,-18 553,-18 481,-18 417,-7 360,16 303,38 254,71 215,114 175,157 145,211 124,275 103,339 92,413 92,496 92,574 103,645 125,710 147,774 179,829 220,876 261,922 312,958 371,984 430,1009 498,1022 573,1022 645,1022 710,1011 767,989 824,966 872,934 912,891 951,848 982,794 1003,730 1024,666 1034,593 1034,510 Z M 856,502 C 856,564 849,618 836,665 822,711 802,750 777,781 752,812 721,835 685,851 648,866 608,874 563,874 511,874 467,864 430,844 393,823 362,796 339,762 315,728 298,689 287,644 276,599 270,551 270,502 270,440 277,386 291,339 304,292 324,254 349,223 374,192 405,168 441,153 477,137 518,129 563,129 615,129 660,139 697,160 734,180 764,207 788,241 811,275 829,315 840,360 851,405 856,452 856,502 Z"
         id="glyph23" /><glyph
         unicode="n"
         horiz-adv-x="795"
         d="M 160,1004 L 315,1004 322,842 C 351,877 380,906 407,929 434,952 461,970 488,984 514,998 541,1008 568,1014 595,1019 624,1022 653,1022 756,1022 835,992 888,931 941,870 967,778 967,655 L 967,0 793,0 793,641 C 793,720 778,778 749,816 720,853 676,872 618,872 597,872 576,869 556,863 535,856 514,845 492,830 470,814 446,793 421,766 395,739 366,706 334,666 L 334,0 160,0 160,1004 Z"
         id="glyph25" /><glyph
         unicode="m"
         horiz-adv-x="927"
         d="M 876,0 L 876,721 C 876,752 875,778 873,798 870,818 867,834 862,846 857,857 850,865 843,870 835,875 825,877 814,877 801,877 788,873 777,865 766,857 754,844 741,826 728,808 713,784 698,755 682,725 663,688 642,645 L 642,0 483,0 483,702 C 483,739 482,768 480,791 477,814 474,831 469,844 464,857 457,865 449,870 441,875 431,877 420,877 408,877 397,874 386,867 375,860 364,848 351,831 338,814 323,790 307,760 291,730 272,692 250,645 L 250,0 90,0 90,1004 223,1004 231,813 C 248,851 265,883 282,910 298,937 315,958 332,975 349,991 368,1003 388,1011 407,1018 429,1022 453,1022 507,1022 548,1004 576,969 604,934 618,879 618,805 634,840 650,871 665,898 680,925 697,947 715,966 732,984 752,998 773,1008 794,1017 819,1022 847,1022 973,1022 1036,925 1036,731 L 1036,0 876,0 Z"
         id="glyph27" /><glyph
         unicode="l"
         horiz-adv-x="795"
         d="M 502,1270 L 205,1270 205,1413 678,1413 678,145 977,145 977,0 172,0 172,145 502,145 502,1270 Z"
         id="glyph29" /><glyph
         unicode="i"
         horiz-adv-x="795"
         d="M 502,860 L 205,860 205,1004 678,1004 678,145 977,145 977,0 172,0 172,145 502,145 502,860 Z M 563,1425 C 582,1425 600,1422 617,1415 634,1408 648,1398 661,1385 673,1372 683,1358 690,1342 697,1325 700,1307 700,1288 700,1269 697,1252 690,1235 683,1218 673,1204 661,1191 648,1178 634,1169 617,1162 600,1155 582,1151 563,1151 544,1151 526,1155 509,1162 492,1169 478,1178 466,1191 453,1204 444,1218 437,1235 430,1252 426,1269 426,1288 426,1307 430,1325 437,1342 444,1358 453,1372 466,1385 478,1398 492,1408 509,1415 526,1422 544,1425 563,1425 Z"
         id="glyph31" /><glyph
         unicode="g"
         horiz-adv-x="927"
         d="M 883,862 C 902,839 916,812 927,781 937,750 942,716 942,680 942,628 933,581 914,538 895,495 868,458 833,427 798,396 757,373 709,356 660,339 607,330 549,330 507,330 468,335 431,344 394,353 365,364 344,377 331,358 321,341 312,324 303,307 299,289 299,268 299,243 311,222 336,205 360,188 392,179 432,178 L 696,168 C 746,167 792,160 835,149 877,138 913,121 944,100 974,79 998,52 1015,21 1032,-10 1040,-47 1040,-88 1040,-133 1030,-175 1011,-215 992,-255 962,-290 922,-320 881,-351 830,-375 768,-393 706,-411 632,-420 547,-420 466,-420 397,-413 340,-400 283,-387 236,-369 199,-346 162,-323 136,-296 119,-264 102,-233 94,-198 94,-160 94,-111 105,-69 128,-32 151,5 186,40 233,74 216,82 201,92 188,104 175,116 165,129 157,144 149,158 143,173 139,189 135,205 133,221 133,236 133,279 143,319 164,355 184,391 208,425 236,457 223,472 212,487 203,502 193,517 185,533 178,550 171,567 165,585 162,605 158,624 156,647 156,672 156,724 166,772 185,815 204,858 230,894 265,925 299,956 340,980 389,997 437,1014 490,1022 549,1022 574,1022 597,1020 620,1017 643,1014 663,1009 680,1004 L 1044,1004 1044,862 883,862 Z M 279,-145 C 279,-192 304,-227 353,-248 402,-270 471,-281 559,-281 614,-281 661,-276 699,-266 736,-256 767,-243 790,-226 813,-210 829,-191 839,-170 849,-149 854,-128 854,-106 854,-65 837,-35 804,-16 771,3 720,15 651,18 L 389,27 C 367,12 349,-2 335,-16 320,-30 309,-44 301,-58 293,-73 287,-87 284,-101 281,-116 279,-130 279,-145 Z M 332,676 C 332,644 337,615 348,588 359,561 374,539 393,520 412,501 435,487 462,477 488,466 517,461 549,461 584,461 615,467 642,479 669,490 691,506 710,526 728,546 742,569 752,595 761,621 766,648 766,676 766,708 761,737 750,764 739,791 724,813 705,832 686,851 663,865 637,876 610,886 581,891 549,891 514,891 484,885 457,873 430,861 407,845 389,826 370,806 356,783 347,757 337,731 332,704 332,676 Z"
         id="glyph33" /><glyph
         unicode="e"
         horiz-adv-x="874"
         d="M 1008,555 C 1008,530 1008,510 1007,493 1006,476 1005,461 1004,446 L 299,446 C 299,343 328,265 385,210 442,155 525,127 633,127 662,127 692,128 721,131 750,133 779,136 806,140 833,144 860,149 885,154 910,159 933,164 954,170 L 954,27 C 907,14 853,3 794,-5 734,-14 672,-18 608,-18 522,-18 448,-6 386,17 324,40 273,74 234,119 194,163 165,217 146,282 127,346 117,419 117,500 117,571 127,638 148,701 168,764 198,819 237,867 276,914 323,952 380,980 437,1008 501,1022 573,1022 643,1022 705,1011 759,989 813,967 859,936 896,896 933,855 961,806 980,749 999,691 1008,626 1008,555 Z M 827,580 C 829,625 825,666 814,703 803,740 787,771 765,798 742,825 714,846 681,861 648,876 609,883 565,883 527,883 492,876 461,861 430,846 403,826 380,799 357,772 339,740 325,703 311,666 302,625 299,580 L 827,580 Z"
         id="glyph35" /><glyph
         unicode="d"
         horiz-adv-x="821"
         d="M 109,481 C 109,566 121,642 144,709 167,775 201,831 244,877 287,922 338,957 399,981 459,1004 526,1016 600,1016 632,1016 664,1014 695,1010 726,1006 756,1000 786,991 L 786,1413 961,1413 961,0 805,0 799,190 C 750,119 698,67 641,33 584,-1 523,-18 457,-18 400,-18 349,-6 306,18 262,42 226,76 197,120 168,163 146,216 131,277 116,338 109,406 109,481 Z M 287,492 C 287,371 305,280 341,221 376,161 427,131 492,131 536,131 583,151 632,190 681,229 732,288 786,365 L 786,831 C 757,844 726,855 691,862 656,869 622,872 588,872 493,872 420,841 367,780 314,719 287,623 287,492 Z"
         id="glyph37" /><glyph
         unicode="c"
         horiz-adv-x="795"
         d="M 940,37 C 895,20 848,7 801,-1 753,-10 704,-14 653,-14 494,-14 372,29 287,115 201,201 158,327 158,492 158,571 170,643 195,708 220,773 254,828 299,874 344,920 397,956 459,981 521,1006 589,1018 664,1018 716,1018 765,1014 810,1007 855,1000 899,988 940,971 L 940,805 C 897,828 853,844 808,855 763,865 716,870 668,870 623,870 581,862 542,845 502,828 467,803 437,771 407,739 383,700 366,654 349,608 340,556 340,498 340,377 370,286 429,226 488,165 569,135 674,135 721,135 767,140 812,151 856,162 899,178 940,199 L 940,37 Z"
         id="glyph39" /><glyph
         unicode="a"
         horiz-adv-x="795"
         d="M 805,0 L 801,135 C 746,81 691,42 635,18 578,-6 519,-18 457,-18 400,-18 351,-11 310,4 269,19 236,39 210,65 183,90 164,120 152,155 139,190 133,227 133,268 133,369 171,448 246,505 321,562 431,590 578,590 L 786,590 786,678 C 786,737 767,785 729,821 691,856 633,874 555,874 498,874 443,868 388,855 333,842 276,824 217,801 L 217,958 C 239,966 264,974 291,982 318,989 346,996 376,1002 406,1008 437,1013 470,1017 503,1020 536,1022 569,1022 630,1022 684,1015 733,1002 782,989 823,968 857,941 890,914 916,879 934,838 952,797 961,748 961,692 L 961,0 805,0 Z M 786,457 L 565,457 C 522,457 484,453 453,444 422,435 396,423 376,407 356,391 341,372 332,350 322,327 317,302 317,274 317,255 320,236 326,219 332,201 342,185 355,172 368,158 386,147 407,139 428,131 454,127 485,127 525,127 571,139 623,164 674,188 729,226 786,279 L 786,457 Z"
         id="glyph41" /><glyph
         unicode="S"
         horiz-adv-x="874"
         d="M 997,354 C 997,292 984,238 959,191 934,144 898,106 853,75 808,44 753,20 690,5 626,-10 556,-18 479,-18 444,-18 410,-17 376,-14 341,-11 308,-8 277,-4 245,0 215,5 187,10 159,15 134,21 111,27 L 111,199 C 161,180 217,166 280,155 342,144 413,139 492,139 549,139 598,144 639,153 679,162 712,175 738,193 763,210 782,232 794,257 805,282 811,311 811,344 811,379 801,410 782,435 762,460 736,482 704,502 672,521 636,539 595,556 554,572 512,589 469,606 426,623 385,642 344,663 303,683 266,707 234,735 202,762 176,795 157,832 137,869 127,914 127,965 127,1010 136,1054 155,1097 174,1140 203,1179 242,1213 281,1246 332,1273 394,1294 455,1315 529,1325 614,1325 636,1325 660,1324 686,1322 711,1320 737,1317 764,1314 790,1310 816,1306 842,1301 867,1296 891,1291 913,1286 L 913,1126 C 862,1141 810,1152 759,1160 708,1167 658,1171 610,1171 508,1171 433,1154 385,1120 337,1086 313,1040 313,983 313,948 323,917 343,892 362,867 388,844 420,824 452,804 489,786 530,770 571,753 612,736 655,719 698,702 740,683 781,662 822,641 858,617 890,589 922,560 948,527 968,489 987,451 997,406 997,354 Z"
         id="glyph43" /><glyph
         unicode="R"
         horiz-adv-x="874"
         d="M 1051,0 L 850,0 655,418 C 640,450 625,477 610,498 595,519 578,535 561,548 543,560 524,569 503,574 482,579 458,582 432,582 L 348,582 348,0 170,0 170,1307 520,1307 C 596,1307 661,1299 716,1282 771,1265 816,1242 851,1212 886,1182 911,1146 928,1104 944,1061 952,1014 952,963 952,922 946,884 934,848 922,811 904,778 881,749 857,719 828,693 793,672 758,650 717,634 672,623 709,610 740,588 766,557 791,525 817,483 844,430 L 1051,0 Z M 766,948 C 766,1018 744,1070 701,1105 657,1140 595,1157 516,1157 L 348,1157 348,725 492,725 C 534,725 572,730 606,740 639,749 668,764 692,783 715,802 734,825 747,853 760,880 766,912 766,948 Z"
         id="glyph45" /><glyph
         unicode="F"
         horiz-adv-x="742"
         d="M 942,1155 L 387,1155 387,731 913,731 913,582 387,582 387,0 205,0 205,1307 942,1307 942,1155 Z"
         id="glyph47" /><glyph
         unicode="C"
         horiz-adv-x="875"
         d="M 995,49 C 890,6 781,-16 666,-16 481,-16 340,39 241,150 142,260 92,423 92,639 92,744 106,838 133,923 160,1008 199,1080 250,1139 301,1198 362,1243 434,1275 506,1307 587,1323 676,1323 737,1323 793,1318 845,1308 897,1297 947,1281 995,1260 L 995,1085 C 948,1111 899,1131 848,1145 797,1158 742,1165 682,1165 621,1165 565,1154 516,1131 466,1108 424,1074 389,1031 354,987 328,934 309,871 290,808 281,736 281,655 281,486 315,358 384,272 453,186 553,143 686,143 742,143 796,150 847,163 898,176 948,194 995,217 L 995,49 Z"
         id="glyph49" /><glyph
         unicode="A"
         horiz-adv-x="1086"
         d="M 1116,0 L 922,0 831,285 287,285 195,0 10,0 444,1307 688,1307 1116,0 Z M 780,444 L 559,1143 338,444 780,444 Z"
         id="glyph51" /><glyph
         unicode="&gt;"
         horiz-adv-x="769"
         d="M 209,995 L 317,1106 989,545 317,-16 209,94 754,543 209,995 Z"
         id="glyph53" /><glyph
         unicode="&lt;"
         horiz-adv-x="769"
         d="M 918,94 L 809,-16 137,545 809,1106 918,995 373,547 918,94 Z"
         id="glyph55" /><glyph
         unicode=","
         horiz-adv-x="477"
         d="M 238,-205 C 272,-206 305,-203 337,-196 369,-189 397,-178 422,-163 446,-149 465,-131 480,-110 495,-89 502,-64 502,-37 502,-9 497,14 488,31 478,48 467,64 455,79 443,94 432,109 423,126 413,143 408,165 408,193 408,207 411,222 416,237 421,252 430,266 441,279 452,292 466,302 483,310 500,318 520,322 543,322 566,322 589,317 611,308 632,298 651,283 668,263 684,243 697,218 707,188 716,158 721,123 721,82 721,27 711,-26 691,-77 670,-128 640,-174 600,-213 559,-252 509,-284 449,-307 388,-330 318,-342 238,-342 L 238,-205 Z"
         id="glyph57" /><glyph
         unicode=")"
         horiz-adv-x="557"
         d="M 365,1489 C 672,1204 826,888 826,539 826,467 819,392 804,315 789,238 764,159 729,78 694,-3 646,-86 587,-169 527,-252 452,-336 361,-420 L 260,-317 C 390,-188 487,-54 551,86 615,226 647,373 647,526 647,843 518,1129 260,1382 L 365,1489 Z"
         id="glyph59" /><glyph
         unicode="("
         horiz-adv-x="557"
         d="M 761,-420 C 454,-135 300,179 300,524 300,605 308,685 325,766 341,846 367,926 404,1007 440,1088 488,1168 548,1249 607,1330 680,1410 765,1489 L 866,1386 C 607,1131 478,848 478,537 478,382 511,234 576,91 641,-52 738,-186 866,-313 L 761,-420 Z"
         id="glyph61" /><glyph
         unicode=" "
         horiz-adv-x="1111"
         id="glyph63" /></font>
</defs>
</svg>
